#TITLE:Kankan;
#SUBTITLE:;
#ARTIST:O2jam;
#TITLETRANSLIT:;
#SUBTITLETRANSLIT:;
#ARTISTTRANSLIT:;
#CREDIT:Tony;
#BANNER:kankan-bn.jpg;
#BACKGROUND:kankan-bg.jpg;
#LYRICSPATH:;
#CDTITLE:kankan.png;
#MUSIC:Kankan.mp3;
#OFFSET:-0.060;
#SAMPLESTART:87.500;
#SAMPLELENGTH:20.000;
#SELECTABLE:YES;
#DISPLAYBPM:170.000;
#BPMS:0.000=170.000,27.000=85.000,27.375=339.999,28.000=170.000,51.938=-2.340,52.000=170.000,56.500=127.499,57.000=212.500,57.500=127.500,58.000=212.500,58.438=-9.760,58.688=170.000,63.000=127.500,63.500=212.500,64.000=339.999,64.500=85.000,64.750=170.000,66.938=-2.380,67.000=170.000,71.500=127.500,72.000=212.500,72.500=127.500,73.000=212.500,73.438=-9.760,73.688=170.000,78.000=127.000,78.500=212.501,79.000=339.999,79.500=85.000,79.750=170.000,82.000=339.999,82.688=85.000,83.000=339.999,83.688=85.000,84.000=339.999,84.625=85.000,85.000=349.999,85.625=85.000,86.000=170.000,88.000=339.999,88.688=85.000,89.000=339.999,89.688=85.000,90.000=340.000,90.625=85.000,91.000=339.999,91.625=85.000,92.000=170.000,111.000=85.000,112.000=339.999,114.000=170.000,142.000=339.999,142.625=85.000,143.000=339.999,143.688=85.000,144.000=170.000,172.000=339.999,174.625=42.500,174.750=170.000,175.000=85.000,178.625=339.999,180.000=85.000,184.000=170.000,191.000=84.999,191.313=339.999,192.000=170.000,216.000=42.499,216.438=339.999,217.000=170.000,237.000=84.999,237.313=339.999,238.000=170.000,241.000=85.000,241.313=339.999,242.000=170.000,247.000=299.999,247.625=85.000,248.000=339.999,248.688=85.000,249.000=170.000,299.000=339.999,299.688=85.000,300.000=170.000;
#STOPS:65.000=0.080
,65.250=0.080
,65.500=0.080
,65.750=0.080
,66.000=0.080
,66.250=0.100
,66.500=0.180
,80.000=0.060
,80.250=0.080
,80.500=0.080
,80.750=0.080
,81.000=0.080
,81.250=0.100
,81.500=0.180
,86.000=0.080
,86.250=0.080
,86.500=0.080
,86.750=0.080
,87.000=0.080
,87.250=0.100
,87.500=0.180
,126.000=0.080
,126.250=0.080
,126.500=0.080
,126.750=0.080
,127.000=0.080
,127.250=0.100
,127.500=0.100
,127.750=0.100
,156.000=0.080
,156.250=0.080
,156.500=0.080
,156.750=0.080
,157.000=0.100
,157.250=0.100
,157.500=0.080
,157.750=0.080
,261.000=0.080
,261.250=0.080
,261.500=0.080
,261.750=0.100
,262.000=0.080
,262.250=0.100
,262.500=0.100
,262.750=0.080
;
#BGCHANGES:;
// cache tags:
#FIRSTBEAT:4.000;
#LASTBEAT:327.000;
#SONGFILENAME:Songs/Music V.I.P ^_^/Kankan/Kankan.sm;
#HASMUSIC:1;
#HASBANNER:1;
#MUSICLENGTH:122.989;
// end cache tags

//---------------dance-single - Blank----------------
#NOTES:
     dance-single:
     Blank:
     Hard:
     20:
     1.000,1.000,1.000,0.602,0.443,576.000,343.000,74.000,23.000,189.000:
0000
0000
0000
0000
,
0000
0000
0000
0000
,
0000
0000
0000
0000
,
0000
0000
0000
0000
,
0000
0000
0000
0000
,
1010
0001
0101
0010
0101
1000
1100
0100
,
1010
0010
0101
0001
0011
0110
1100
0000
,
1100
0000
0000
0000
0110
0000
0000
0000
0011
0000
0000
0000
0010
0000
0000
0000
0101
0000
0000
0000
0100
0000
0000
0000
1100
0000
0000
0000
0010
0000
0000
0010
,
0001
0000
0000
0000
0100
0000
0000
0010
0001
0000
0000
0000
0100
0000
0000
0010
0001
0000
0000
0000
0100
0000
0000
0010
0001
0000
0000
0000
0100
0000
0000
0000
,
1110
0001
0101
1000
1010
0100
1100
0010
,
0101
1000
1010
0100
0110
1100
0110
0011
,
1110
0001
0101
1000
1010
0100
1100
0010
,
0101
1000
1010
0100
0110
1100
0110
0011
,
1110
0110
0111
0000
0000
0MMM
0000
MM00
,
0000
1110
0MM0
1110
0000
0111
1001
1110
,
M000
0M00
00M0
000M
00M0
0M00
M000
0000
MMM0
0000
0000
0000
0111
0000
M00M
0000
,
1101
0000
0000
0000
1000
0100
0010
0001
0010
0100
1000
0000
1110
0000
0101
0000
,
1110
0000
0000
0000
0000
0000
0000
1110
,
0M0M
1011
0000
0111
1010
1101
0000
0000
,
0000
0000
0000
0000
0111
M0M0
1110
0000
,
1000
0100
0010
0100
0010
0001
0001
0000
1110
0000
0000
0000
0111
0000
0000
0000
,
1110
0000
0000
0000
0111
0000
0000
0000
1010
0100
0001
0100
1010
0001
1100
0000
,
1110
0111
1110
0111
,
1110
0100
1010
1000
1101
0010
0101
0001
,
1110
1000
1010
0100
0111
0100
1010
0001
,
1110
0000
0100
0000
1010
0000
0100
0000
0111
0000
0101
1010
0101
0000
1010
0101
,
1010
0000
0011
1100
0011
0000
0110
1100
0011
0000
0011
0110
1100
0000
1100
0011
,
0110
0110
0110
0110
0110
0110
0110
0000
0000
0000
0000
0000
0000
0000
0000
0000
,
0000
0000
1221
1001
,
1331
1000
1010
0100
0220
0000
1001
0000
,
1331
0110
1010
1001
1202
0000
1010
0000
,
1313
0000
1010
0000
0011
0000
0110
0000
1100
0001
0100
0010
1000
0001
0010
0100
,
2200
0000
0011
0000
3311
0110
1100
0110
,
0122
0000
1100
0000
1133
0110
1001
0110
,
1202
0000
1010
0000
1313
0101
0011
0110
,
1100
0100
1010
0001
0110
0000
0110
0000
,
1000
0001
0100
0010
1000
0001
0010
0100
1001
0000
1010
0000
1100
0000
0011
0000
,
1221
0000
1001
0000
1331
0110
1100
0110
,
0122
0000
1100
0000
1133
0101
1001
1010
,
0111
1000
0001
1000
0001
0100
0110
0110
0220
0000
0000
0000
1001
0000
0000
0000
,
1331
1010
0101
1001
2112
0000
0110
0000
,
3113
0011
0110
1010
2120
0000
0101
0000
,
3131
1010
0011
0110
1101
1010
0011
0110
,
1221
0000
0000
0000
0000
0000
0000
0000
1331
0000
0000
0000
0001
0010
0010
0001
,
0010
0010
0100
0010
1000
1000
0100
0010
0100
0010
0010
0000
0000
0000
0000
0000
,
1010
0000
0000
0000
0100
0000
0000
0000
0100
0000
0000
0000
1000
0000
0000
0000
0101
0000
0000
0000
0010
0000
0000
0000
0010
0000
0000
0000
0100
0000
0000
0000
0010
0001
0000
0000
0100
0000
0000
0000
0010
0001
0000
0000
0100
0000
0000
0000
0010
0001
0000
0000
0100
0000
0000
0000
0010
0001
0000
0000
0100
0000
0000
0000
,
1110
1010
1010
0101
1010
0110
0110
0011
,
1010
1001
0101
1010
0011
0110
0110
0000
,
1111
1010
1010
1000
0101
0101
0101
0010
,
1100
1100
1100
0010
0011
0011
0011
0110
,
1011
1011
1011
0100
1101
1101
1101
0010
,
1110
1110
1110
1000
1011
1011
1011
0101
,
1011
1110
1101
1011
0111
1110
0110
0000
,
0000
0000
0000
0000
,
1111
0000
1222
0000
1000
0000
1300
0130
,
1013
0001
2221
0000
0001
0000
3001
1030
,
0311
0101
2110
0000
0211
0000
0010
0001
,
0311
0010
3121
1000
2101
0001
0132
0010
,
3100
1010
2213
0000
0011
0000
3311
0101
,
1100
0110
2000
0000
3011
0000
0110
0011
,
0110
1100
0002
0000
1113
0000
1010
0011
,
1010
0100
1100
0011
1100
0011
1101
0000
,
1111
0000
0000
0000
1100
0010
0001
0010
1100
0010
0001
0010
1100
0000
0110
0000
,
0011
0110
2112
0000
0120
0000
3103
1000
,
0231
1001
2011
0000
0312
0000
3110
0010
,
0113
0000
1100
0000
1000
0001
1000
0001
1010
0001
1100
0011
2020
0000
0000
0000
,
0201
0000
3032
1000
1310
0010
1113
0000
,
1221
0000
1001
0002
1330
2010
0120
0000
,
0103
0000
0000
0000
3031
0100
1010
0001
1010
0100
0010
0001
1110
0000
0010
0001
,
2100
0001
0010
0000
0210
0001
0010
0000
3020
1000
0001
0000
0302
1000
0100
0000
,
2030
0010
0100
0000
0013
0100
0001
0010
0001
0100
0010
0001
3110
0000
0000
0000
,
0012
1000
0100
0000
1020
0100
1000
0000
1203
0001
1000
0000
2030
0010
0001
0000
,
0302
0100
0010
0000
3010
0100
1000
0100
1013
0100
0010
0001
1110
0001
0010
0100
,
1011
0100
0010
0001
1010
0100
0001
0010
1001
0100
1001
0010
1101
0010
0001
0100
,
1011
0100
0010
0001
1110
0001
0010
1000
0011
0100
1010
0001
1110
0000
0000
0000
,
0120
2100
0132
3210
,
1023
0000
0000
0000
2301
0000
0000
0000
0132
0000
0000
0000
3210
0000
0000
1010
,
1013
0000
0000
0011
0311
0000
0000
1010
0101
0000
0000
0101
1010
0000
0000
0000
,
1110
0000
0111
0000
1110
0110
1101
0010
,
1001
0000
0001
0000
1001
1010
1100
1010
1001
0000
1001
0000
2002
0000
0000
0000
,
0000
0000
0000
0000
0000
3003
1111
0000
;

//---------------dance-solo - ----------------
#NOTES:
     dance-solo:
     :
     Hard:
     18:
     1.000,1.000,1.000,0.992,0.374,573.000,368.000,122.000,38.000,188.000:
000000
000000
000000
000000
,
100000
010000
001000
100000
000010
010000
000100
000001
,
000100
001000
000010
010000
000001
000100
001000
000001
,
100000
001000
000010
010000
000001
000100
001000
010000
,
000001
100000
010000
000100
000010
000001
010000
000000
,
100000
000100
010000
000010
000100
000001
100000
010000
,
001000
100000
000010
000001
001000
000100
000010
000000
,
100000
000100
010000
000010
001000
000001
000100
100000
,
000001
000010
000000
000000
010000
000000
000000
000000
000001
000010
000000
000000
010000
000000
000000
000000
000001
000010
000000
000000
010000
000000
000000
000000
000001
000010
000000
000000
010000
000000
000000
000000
,
100100
010000
001010
100000
000011
001000
000101
010000
,
010010
000001
001100
001000
100100
000010
000110
100001
,
010001
001000
100100
000010
110000
000001
000110
001000
,
000011
000001
010010
000100
010100
100000
010010
000000
,
111000
011000
011100
000000
000000
0MMM00
000000
MM0000
,
000000
111000
0MM000
111000
000000
011100
100100
111000
,
M00000
0M0000
00M000
000M00
00M000
0M0000
M00000
000000
MMM000
000000
000000
000000
011100
000000
M00M00
000000
,
110100
000000
000000
000000
100000
010000
001000
000100
001000
010000
100000
000000
000111
000000
000110
000000
,
001110
000000
000000
00MMM0
000000
0000MM
000000
000111
,
000MM0
000000
000111
000000
000000
000000
001110
000000
001001
000000
000111
000000
00000M
0000M0
000M00
00M000
,
000M00
0000M0
00000M
000000
000MMM
000000
000000
000000
001110
000000
00M00M
000000
001011
000000
000000
000000
,
000001
000010
000100
001000
000100
000010
000001
000000
111000
000000
000000
000000
000111
000000
000000
000000
,
011110
000000
000000
000000
110011
000000
000000
000000
100001
010010
001100
010010
100001
010010
001100
000000
,
001110
011100
110011
011110
,
110000
011000
001100
000110
000111
001000
000111
010000
,
000111
100000
000111
010000
000111
001000
000111
010000
,
000111
000000
100000
000000
000111
000000
010000
000000
000111
000000
000000
001000
110000
000000
000000
000100
,
000011
000000
000000
100001
010010
000000
000000
010010
100001
000000
000000
000000
000110
110000
000000
011000
,
000011
000000
100001
010010
001100
010010
100001
000000
000000
000000
000000
000000
000000
000000
000000
000000
,
000000
000000
200020
011000
,
301001
000100
101000
000001
200032
000000
001100
000000
,
010103
001000
010100
000010
300002
000000
001120
000000
,
101000
000000
010000
000000
001130
000000
010000
000000
100003
010000
001000
000100
000010
000001
100000
010000
,
002200
000000
200002
000000
013310
001000
010100
000010
,
300223
000000
022000
000000
100331
000010
000110
100000
,
233200
000000
002002
000000
310310
000010
100100
100000
,
003113
000100
001001
010000
101000
000000
000101
000000
,
100001
010100
001010
010001
100010
000000
000100
000000
000011
000000
010000
000000
100100
000000
001000
000000
,
100102
010000
201010
000100
010010
300103
011000
010000
,
200101
000010
010102
001000
010100
301003
000110
000010
,
010001
100100
010001
100010
001100
100010
010001
001010
200200
000000
000000
000000
000022
000000
000000
000000
,
011000
310333
101000
000010
100022
010000
102200
010000
,
110000
103333
010100
000010
020002
001000
200120
001000
,
001100
331033
000110
100000
100010
000001
010001
000100
,
101000
000000
000000
000000
000000
000000
000000
000000
001111
000000
000000
000000
100000
100000
000001
000001
,
010000
010000
000010
000010
001000
000100
001000
000100
001000
000100
001000
000000
000000
000000
000000
000000
,
100000
000100
010000
000001
000100
001000
000010
000001
100100
010010
001100
100001
010100
001001
100010
001100
,
010001
100100
010010
001100
100001
001001
010010
100100
,
001001
001001
100010
010001
100100
001010
010001
000000
,
101101
100001
100001
100001
001111
001100
001100
001100
,
111001
010001
010001
010001
101011
100010
100011
110010
,
010011
010011
010011
010011
110001
110001
110001
110001
,
110011
011110
110110
011011
011110
001111
111100
101011
,
110101
110101
110101
011011
111010
110111
111011
000000
,
000000
000000
000000
000000
,
100001
000000
000222
000000
022000
000000
100303
000100
,
133030
000011
100010
010000
000110
100000
001100
110000
,
000110
000011
001100
010000
100100
000010
000101
001100
,
100010
010100
000101
001010
100100
000011
001100
010010
,
000101
100100
020220
000000
200002
000000
031030
011000
,
301313
101000
000101
000000
111100
000000
000011
101000
,
001100
011000
000011
000000
001111
000000
100100
010010
,
100001
000011
010100
100010
011000
000101
001100
000000
,
110011
000000
222200
000000
000011
000000
030311
000101
,
313010
101000
020200
000000
002020
030300
100001
103130
,
010010
100001
002222
000000
110000
000000
113030
011000
,
001313
000000
100100
000000
100010
001001
010010
001100
100001
010010
001001
100100
202202
000000
000000
000000
,
010010
000000
013310
010100
301013
000101
220000
000000
,
000022
330000
001100
100133
010010
001001
000202
000000
,
202000
000303
000011
313010
100001
011000
002002
000000
,
020020
203203
032032
320320
,
203203
000000
000000
000000
030031
000010
001000
010000
301300
000010
000001
000010
200200
000000
000000
000000
,
020020
302302
230230
023023
,
302302
000000
000000
000000
130030
000100
000010
010000
103003
000100
000010
000001
100010
010001
001100
100010
,
001001
010100
100001
001010
010100
001010
100001
010100
001010
100001
001100
010001
100100
001010
010100
001001
,
100010
010100
001010
100001
001000
010100
100001
001010
010100
001001
100010
010001
001100
000000
000000
000000
,
200002
020020
302203
230032
,
023320
000000
302203
000000
230032
000000
023320
300003
,
001100
001100
000000
100001
130031
000000
000000
010010
010010
000000
000000
001100
002200
000000
000000
000000
,
000000
020020
000000
200002
,
033330
000000
000000
000000
000000
000000
000000
000000
310013
000000
001100
000000
010010
000000
100100
000000
001001
000010
000100
001000
010000
100000
000001
000010
002200
000000
000000
000000
000000
000000
000000
000000
,
000000
000000
000000
000000
000000
003300
222222
000000
,
000000
000000
000000
333333
;
